#TITLE:IIDX;
#SUBTITLE:;
#ARTIST:DJ Simon;
#TITLETRANSLIT:;
#SUBTITLETRANSLIT:;
#ARTISTTRANSLIT:;
#CREDIT:;
#BANNER:;
#BACKGROUND:;
#LYRICSPATH:;
#CDTITLE:;
#MUSIC:IIDX.mp3;
#MUSICLENGTH:88.555;
#OFFSET:-0.040;
#SAMPLESTART:17.345;
#SAMPLELENGTH:12.000;
#SELECTABLE:YES;
#BPMS:0.000=110.000;
#STOPS:;
#BGCHANGES:;
#FIRSTBEAT:2.000;

#LASTBEAT:160.000;

#SONGFILENAME:Songs/EXTRA/IIDX/IIDX.sm;

#HASMUSIC:1;

#HASBANNER:0;


//---------------dance-single - MANIAC----------------
#NOTES:
     dance-single:
     MANIAC:
     hard:
     7:
     0.466,0.452,0.260,0.000,0.203,266.000,23.000,0.000,0.000,0.000:  // measure 1
0000
0000
0000
0000
0010
0001
0011
0000
,  // measure 2
0000
0000
0000
0000
0010
1000
1010
0000
,  // measure 3
0000
0000
0000
0000
0100
0001
0101
0000
,  // measure 4
0000
0000
0000
0000
0100
1000
1100
0000
,  // measure 5
0010
0000
0001
0000
1000
0001
1001
0000
,  // measure 6
0100
0000
0001
0000
0100
0010
0110
0100
,  // measure 7
0001
0000
1000
0000
0100
0001
0010
0010
,  // measure 8
0100
0001
0010
0010
0100
0001
0010
0010
,  // measure 9
0100
0000
0001
0000
1000
0100
0000
0100
1000
0000
0100
0000
0010
0000
0000
0000
,  // measure 10
0100
0000
0001
0000
1000
0100
0000
0100
1000
0000
1100
0000
1001
0000
0000
0000
,  // measure 11
0001
0000
0100
0000
0010
0100
0000
0100
0010
0000
0100
0000
0001
0000
0000
0000
,  // measure 12
0001
0000
0100
0000
0010
0100
0000
0100
0010
0000
0000
0000
0110
0000
0000
0000
,  // measure 13
0100
0000
0001
0000
1000
0100
0000
0100
1000
0000
0100
0000
0010
0000
0000
0000
,  // measure 14
0100
0000
0001
0000
1000
0100
0000
0100
1000
0000
1100
0000
1001
0000
0000
0000
,  // measure 15
0001
0000
0100
0000
0010
0100
0000
0100
0010
0000
0100
0000
0001
0000
0000
0000
,  // measure 16
0001
0000
0100
0000
0010
0100
0000
0100
0010
0000
0000
0000
0110
0000
0000
0000
,  // measure 17
1000
0001
0001
0000
0100
0001
0001
0000
,  // measure 18
1000
0010
1000
0100
0001
0100
0010
0000
,  // measure 19
1000
0100
0100
0000
0001
0100
0100
0000
,  // measure 20
1000
0100
0001
0100
1000
0010
0001
0000
,  // measure 21
0010
1000
0001
0000
0010
0001
1000
0000
,  // measure 22
0100
0100
0100
0100
0010
0010
0010
0000
,  // measure 23
1000
0100
1000
0000
0001
0100
0001
0001
,  // measure 24
1000
0010
0100
0001
0100
0010
1000
1000
,  // measure 25
1000
0000
0000
0000
0101
0000
0000
1000
0100
0000
0100
0000
0010
0000
0000
0000
,  // measure 26
0001
0000
0000
0000
1100
0000
0000
0001
0100
0000
0100
0000
0010
0000
0000
0000
,  // measure 27
1000
0000
0000
0000
0101
0000
0000
1000
0100
0000
0100
0000
0010
0000
0000
0000
,  // measure 28
0001
0000
0000
0000
1100
0000
0000
0001
0100
0000
0100
0000
0010
0000
0000
0000
,  // measure 29
1000
0100
0010
0000
1000
0000
0001
0000
,  // measure 30
0010
0100
1000
0000
0001
0000
1000
0000
,  // measure 31
1000
0000
0001
1000
0001
0010
0010
0000
,  // measure 32
0100
0010
0100
0010
0100
0010
0100
0010
,  // measure 33
0100
0000
0001
0000
1000
0100
0000
0100
1000
0000
0100
0000
0010
0000
0000
0000
,  // measure 34
0100
0000
0001
0000
1000
0100
0000
0100
1000
0000
1100
0000
1001
0000
0000
0000
,  // measure 35
0001
0000
0100
0000
0010
0100
0000
0100
0010
0000
0100
0000
0001
0000
0000
0000
,  // measure 36
0001
0000
0100
0000
0010
0100
0000
0100
0010
0000
0000
0000
0110
0000
0000
0000
,  // measure 37
0100
0000
0001
0000
1000
0100
0000
0100
1000
0000
0100
0000
0010
0000
0000
0000
,  // measure 38
0100
0000
0001
0000
1000
0100
0000
0100
1000
0000
1100
0000
1001
0000
0000
0000
,  // measure 39
0001
0000
0100
0000
0010
0100
0000
0100
0010
0000
0100
0000
0001
0000
0000
0000
,  // measure 40
0001
0000
0100
0000
0010
0100
0000
0100
0010
0000
0100
0000
0110
0000
0010
0000
,  // measure 41
1001
0000
0000
0000
;

//---------------dance-single - ANOTHER----------------
#NOTES:
     dance-single:
     ANOTHER:
     medium:
     3:
     0.279,0.294,0.000,0.000,0.000,173.000,0.000,0.000,0.000,0.000:  // measure 1
0000
0000
0010
0001
,  // measure 2
0000
0000
0100
1000
,  // measure 3
0000
0000
0010
0100
,  // measure 4
0000
0000
0001
1000
,  // measure 5
0000
0000
0010
0001
,  // measure 6
0000
0000
0010
1000
,  // measure 7
0100
0010
0100
0010
,  // measure 8
1000
0100
1000
0100
1000
0100
1000
0100
,  // measure 9
1000
0001
0100
0010
,  // measure 10
0001
1000
0010
0001
,  // measure 11
0100
0001
1000
0010
,  // measure 12
0100
0001
1000
0100
,  // measure 13
0001
0010
0001
1000
,  // measure 14
0100
0010
0001
0100
,  // measure 15
0100
0001
1000
0010
,  // measure 16
1000
0001
0100
0000
0001
1000
0010
0000
,  // measure 17
0100
0000
0010
0000
0001
1000
0100
0000
,  // measure 18
0001
0000
0100
0000
0010
0100
0010
0000
,  // measure 19
1000
0001
0100
0001
,  // measure 20
1000
0010
0001
0000
0001
0010
1000
0000
,  // measure 21
0001
0000
0100
0000
0010
0010
0010
0000
,  // measure 22
1000
0001
0100
0010
,  // measure 23
1000
0100
1000
0000
0001
0100
0001
0000
,  // measure 24
0001
0001
0001
0000
1000
1000
1000
0000
,  // measure 25
0010
0100
1000
0001
,  // measure 26
0100
0001
1000
0010
,  // measure 27
0001
0001
1000
1000
,  // measure 28
0100
0010
0001
1000
,  // measure 29
1000
1000
1000
0000
0001
0001
0001
0000
,  // measure 30
0010
0010
0010
0000
0100
0100
0100
0000
,  // measure 31
1000
0001
1000
0001
,  // measure 32
0100
0001
0100
0001
0100
0010
0100
0010
,  // measure 33
0100
0001
1000
0100
,  // measure 34
0010
0001
0001
1000
,  // measure 35
1000
0010
0100
0001
,  // measure 36
1000
0010
0100
0100
,  // measure 37
0001
1000
0100
0010
,  // measure 38
0001
1000
0010
0010
,  // measure 39
1000
0001
0010
0001
,  // measure 40
1000
0000
0100
0000
1000
0000
0010
1000
,  // measure 41
0100
0000
0000
0000
;

//---------------dance-single - BASIC----------------
#NOTES:
     dance-single:
     BASIC:
     easy:
     2:
     0.148,0.158,0.023,0.000,0.000,90.000,2.000,0.000,0.000,0.000:  // measure 1
0000
0000
0010
0010
,  // measure 2
0000
0000
0100
0100
,  // measure 3
0000
0000
0010
0010
,  // measure 4
0000
0000
0100
0100
,  // measure 5
0000
0000
0001
0001
,  // measure 6
0000
0000
1000
1000
,  // measure 7
0000
0000
0001
0000
,  // measure 8
0001
0001
0001
0001
,  // measure 9
1000
0000
0001
0000
,  // measure 10
0010
0000
0100
0100
,  // measure 11
0001
0000
1000
0000
,  // measure 12
0010
0000
0100
0001
,  // measure 13
0100
0000
1000
0000
,  // measure 14
0010
0010
0000
0000
,  // measure 15
0100
0000
0010
0000
,  // measure 16
0010
0010
0000
0001
,  // measure 17
0100
0000
1000
0000
,  // measure 18
0010
0000
0000
0100
,  // measure 19
1000
0000
0000
0000
,  // measure 20
0001
0000
0010
0100
,  // measure 21
0100
0000
1000
0001
,  // measure 22
0000
0001
1000
0001
,  // measure 23
0100
0000
0010
0001
,  // measure 24
0000
0000
0010
1000
,  // measure 25
0001
0000
1000
0000
,  // measure 26
0010
0000
0001
0000
,  // measure 27
0100
0000
0010
0000
,  // measure 28
1000
0000
0001
0000
,  // measure 29
0010
1000
0000
0000
,  // measure 30
0010
0001
0000
0000
,  // measure 31
0100
0001
0000
0000
,  // measure 32
0100
1000
0100
1000
,  // measure 33
0010
0000
0100
0000
,  // measure 34
0001
0000
1000
0000
,  // measure 35
0010
0000
0100
0000
,  // measure 36
0001
0000
1000
0000
,  // measure 37
0010
0000
0010
0000
,  // measure 38
0100
0000
0001
0000
,  // measure 39
1000
0000
0100
0000
,  // measure 40
0010
0000
0110
0000
,  // measure 41
0110
0000
0000
0000
;
